Ram.Setu.(2022).720p.HEVC.AMZN.WebRip.Hindi-Multi.AAC.H.265-themo...

  • Category Movies
  • Type Bollywood
  • Language Hindi
  • Total size 961.4 MB
  • Uploaded By tmb001
  • Downloads 10692
  • Last checked 1 month ago
  • Date uploaded 2 months ago
  • Seeders 190
  • Leechers 58

Ram Setu

ActionAdventureDrama

An atheist archaeologist turned believer must race against time to prove the true existence of the legendary Ram Setu before evil forces destroy the pillar of India’s heritage.

Infohash : CCD0AC18C6B1532945D0C54D7DDF042863E743DC




Ram.Setu.(2022).720p.HEVC.AMZN.WebRip.Hindi-Multi.AAC.H.265-themoviesboss



Media Info



Format : Matroska
Format version : Version 4
File size : 961 MiB
Duration : 2 h 28 min
Overall bit rate : 905 kb/s
Encoded date : UTC 2022-12-01 19:05:41
Writing library : libebml v1.4.2 + libmatroska v1.6.4

Video
ID : 2
Format : HEVC
Format/Info : High Efficiency Video Coding
Format profile : [email protected]@Main
Codec ID : V_MPEGH/ISO/HEVC
Duration : 2 h 28 min
Bit rate : 710 kb/s
Width : 1 280 pixels
Height : 544 pixels
Display aspect ratio : 2.35:1
Original display aspect ratio : 2.35:1
Frame rate mode : Constant
Frame rate : 24.000 FPS
Standard : NTSC
Color space : YUV
Chroma subsampling : 4:2:0
Bit depth : 8 bits
Bits/(Pixel*Frame) : 0.042
Stream size : 754 MiB (78%)
Title : themoviesboss
Language : English
Default : Yes
Forced : No
Color range : Limited
Color primaries : BT.709
Transfer characteristics : BT.709
Matrix coefficients : BT.709

Audio #1
ID : 3
Format : AAC LC SBR
Format/Info : Advanced Audio Codec Low Complexity with Spectral Band Replication
Commercial name : HE-AAC
Format settings : Explicit
Codec ID : A_AAC-2
Duration : 2 h 28 min
Bit rate : 64.0 kb/s
Channel(s) : 2 channels
Channel layout : L R
Sampling rate : 48.0 kHz
Frame rate : 23.438 FPS (2048 SPF)
Compression mode : Lossy
Stream size : 68.0 MiB (7%)
Title : themoviesboss
Language : Hindi
Default : Yes
Forced : No

Audio #2
ID : 4
Format : AAC LC SBR
Format/Info : Advanced Audio Codec Low Complexity with Spectral Band Replication
Commercial name : HE-AAC
Format settings : Explicit
Codec ID : A_AAC-2
Duration : 2 h 28 min
Bit rate : 64.0 kb/s
Channel(s) : 2 channels
Channel layout : L R
Sampling rate : 48.0 kHz
Frame rate : 23.438 FPS (2048 SPF)
Compression mode : Lossy
Stream size : 68.0 MiB (7%)
Title : themoviesboss
Language : Tamil
Default : No
Forced : No

Audio #3
ID : 5
Format : AAC LC SBR
Format/Info : Advanced Audio Codec Low Complexity with Spectral Band Replication
Commercial name : HE-AAC
Format settings : Explicit
Codec ID : A_AAC-2
Duration : 2 h 28 min
Bit rate : 64.0 kb/s
Channel(s) : 2 channels
Channel layout : L R
Sampling rate : 48.0 kHz
Frame rate : 23.438 FPS (2048 SPF)
Compression mode : Lossy
Stream size : 68.0 MiB (7%)
Title : themoviesboss
Language : Telugu
Default : No
Forced : No

Text #1
ID : 1
Format : UTF-8
Codec ID : S_TEXT/UTF8
Codec ID/Info : UTF-8 Plain Text
Duration : 30 s 200 ms
Bit rate : 42 b/s
Frame rate : 0.033 FPS
Count of elements : 1
Stream size : 160 Bytes (0%)
Title : TheMoviesBoss
Language : English
Default : Yes
Forced : Yes

Text #2
ID : 6
Format : UTF-8
Codec ID : S_TEXT/UTF8
Codec ID/Info : UTF-8 Plain Text
Duration : 2 h 17 min
Bit rate : 60 b/s
Frame rate : 0.235 FPS
Count of elements : 1935
Stream size : 60.9 KiB (0%)
Title : themoviesboss[Full]
Language : English
Default : No
Forced : No



Screenshots:
















Files:

  • TheMoviesBoss - Ram.Setu.(2022).720p.HEVC.AMZN.WebRip.Hindi-Multi.AAC.H.265-themoviesboss.mkv (961.4 MB)

Comments

Code:

  • udp://tracker.tiny-vps.com:6969/announce
  • udp://fasttracker.foreverpirates.co:6969/announce
  • udp://tracker.opentrackr.org:1337/announce
  • udp://explodie.org:6969/announce
  • udp://open.stealth.si:80/announce
  • udp://tracker.cyberia.is:6969/announce
  • udp://ipv4.tracker.harry.lu:80/announce
  • udp://tracker.uw0.xyz:6969/announce
  • udp://tracker.dler.org:6969/announce
  • udp://9.rarbg.to:2710/announce
  • udp://tracker.bitsearch.to:1337/announce
  • udp://aarsen.me:6969/announce
  • udp://htz3.noho.st:6969/announce
  • udp://tracker.joybomb.tw:6969/announce
  • udp://vibe.sleepyinternetfun.xyz:1738/announce