My Name is Vendetta (2022) 1080p x265 WEBRip DD 5.1 [ Hin,Ita,Eng...

  • Category Movies
  • Type HEVC/x265
  • Language Hindi
  • Total size 1.6 GB
  • Uploaded By krishh1337
  • Downloads 2003
  • Last checked 1 month ago
  • Date uploaded 2 months ago
  • Seeders 53
  • Leechers 15

My Name Is Vendetta

CrimeThriller

After old enemies kill his family, a former mafia enforcer and his feisty daughter flee to Milan, where they hide out while plotting their revenge.

Infohash : 15F900E3EB48B109618C5CF460A7045ED80048F4





Video
ID : 1
Format : HEVC
Format/Info : High Efficiency Video Coding
Format profile : Main [email protected]@High
Codec ID : V_MPEGH/ISO/HEVC
Duration : 1 h 30 min
Bit rate : 1 897 kb/s
Width : 1 920 pixels
Height : 804 pixels
Display aspect ratio : 2.40:1
Frame rate mode : Constant
Frame rate : 24.000 FPS
Color space : YUV
Chroma subsampling : 4:2:0
Bit depth : 10 bits
Bits/(Pixel*Frame) : 0.051
Stream size : 1.20 GiB (76%)


Audio #1
ID : 2
Format : AC-3
Format/Info : Audio Coding 3
Commercial name : Dolby Digital
Codec ID : A_AC3
Duration : 1 h 32 min
Bit rate mode : Constant
Bit rate : 192 kb/s
Channel(s) : 6 channels
Channel layout : L R C LFE Ls Rs
Sampling rate : 48.0 kHz
Frame rate : 31.250 FPS (1536 SPF)
Compression mode : Lossy
Stream size : 126 MiB (8%)
Language : Hindi

Audio #2
ID : 3
Format : AC-3
Format/Info : Audio Coding 3
Commercial name : Dolby Digital
Codec ID : A_AC3
Duration : 1 h 32 min
Bit rate mode : Constant
Bit rate : 192 kb/s
Channel(s) : 6 channels
Channel layout : L R C LFE Ls Rs
Sampling rate : 48.0 kHz
Frame rate : 31.250 FPS (1536 SPF)
Compression mode : Lossy
Stream size : 126 MiB (8%)
Language : Italian

Audio #3
ID : 4
Format : AC-3
Format/Info : Audio Coding 3
Commercial name : Dolby Digital
Codec ID : A_AC3
Duration : 1 h 32 min
Bit rate mode : Constant
Bit rate : 192 kb/s
Channel(s) : 6 channels
Channel layout : L R C LFE Ls Rs
Sampling rate : 48.0 kHz
Frame rate : 31.250 FPS (1536 SPF)
Compression mode : Lossy
Stream size : 126 MiB (8%)
Language : English

Text
ID : 5
Format : UTF-8
Codec ID : S_TEXT/UTF8
Codec ID/Info : UTF-8 Plain Text
Duration : 1 h 30 min
Bit rate : 59 b/s
Frame rate : 0.279 FPS
Count of elements : 1512
Stream size : 39.0 KiB (0%)
Language : English




Files:

  • My Name is Vendetta (2022) 1080p x265 WEBRip DD 5.1 [ Hin,Ita,Eng ] ESub.mkv (1.6 GB)

Comments

Code:

  • udp://tracker.tiny-vps.com:6969/announce
  • udp://tracker.torrent.eu.org:451/announce
  • udp://exodus.desync.com:6969/announce
  • udp://explodie.org:6969/announce
  • udp://tracker.opentrackr.org:1337/announce
  • http://t.nyaatracker.com:80/announce
  • udp://open.stealth.si:80/announce
  • http://tracker.dler.org:6969/announce
  • udp://ipv4.tracker.harry.lu:80/announce
  • http://vps02.net.orel.ru:80/announce
  • udp://vibe.sleepyinternetfun.xyz:1738/announce
  • udp://tracker.bitsearch.to:1337/announce
  • udp://inferno.demonoid.is:3391/announce
  • udp://www.torrent.eu.org:451/announce
  • udp://open.tracker.cl:1337/announce