Last.Flim.Show.(Hindi).(2021).1080p.NF.WEB-DL.Hindi.DDP5.1.H.264-...

  • Category Movies
  • Type Bollywood
  • Language Hindi
  • Total size 2.5 GB
  • Uploaded By tmb001
  • Downloads 1195
  • Last checked 42 minutes ago
  • Date uploaded 1 week ago
  • Seeders 30
  • Leechers 6

Infohash : 58B671B70F6662D073FBB44DA5D8D59F48FAF388




Last.Flim.Show.(Hindi).(2021).1080p.NF.WEB-DL.Hindi.DDP5.1.H.264-themoviesboss



Media Info



Format : Matroska
Format version : Version 4
File size : 2.46 GiB
Duration : 1 h 54 min
Overall bit rate mode : Variable
Overall bit rate : 3 088 kb/s
Movie name : Chhello.Show.(Hindi).(2021).1080p.NF.WEB-DL.Hindi.DDP5.1.H.264-themoviesboss / Encoded By themoviesboss
Encoded date : UTC 2022-11-24 18:46:42
Writing library : libebml v1.3.10 + libmatroska v1.5.2
Video
ID : 2
Format : AVC
Format/Info : Advanced Video Codec
Format profile : [email protected]
Format settings : CABAC / 3 Ref Frames
Format settings, CABAC : Yes
Format settings, Reference frames : 3 frames
Codec ID : V_MPEG4/ISO/AVC
Duration : 1 h 54 min
Bit rate mode : Variable
Bit rate : 2 318 kb/s
Nominal bit rate : 1 376 kb/s
Maximum bit rate : 3 211 kb/s
Width : 1 920 pixels
Height : 1 080 pixels
Display aspect ratio : 16:9
Frame rate mode : Constant
Frame rate : 24.000 FPS
Color space : YUV
Chroma subsampling : 4:2:0
Bit depth : 8 bits
Scan type : Progressive
Bits/(Pixel*Frame) : 0.047
Stream size : 1.85 GiB (75%)
Title : themoviesboss
Writing library : x264 core 148 r2727 7d026e8
Language : English
Default : Yes
Forced : No

Audio #1
ID : 3
Format : E-AC-3
Format/Info : Enhanced AC-3
Commercial name : Dolby Digital Plus
Codec ID : A_EAC3
Duration : 1 h 54 min
Bit rate mode : Constant
Bit rate : 640 kb/s
Channel(s) : 6 channels
Channel layout : L R C LFE Ls Rs
Sampling rate : 48.0 kHz
Frame rate : 31.250 FPS (1536 SPF)
Compression mode : Lossy
Stream size : 523 MiB (21%)
Title : themoviesboss
Language : Hindi
Service kind : Complete Main
Default : Yes
Forced : No

Audio #2
ID : 4
Format : AAC LC SBR
Format/Info : Advanced Audio Codec Low Complexity with Spectral Band Replication
Commercial name : HE-AAC
Format settings : Explicit
Codec ID : A_AAC-2
Duration : 1 h 54 min
Bit rate : 128 kb/s
Channel(s) : 2 channels
Channel layout : L R
Sampling rate : 48.0 kHz
Frame rate : 23.438 FPS (2048 SPF)
Compression mode : Lossy
Stream size : 105 MiB (4%)
Title : themoviesboss
Language : Hindi
Default : No
Forced : No

Text #1
ID : 1
Format : UTF-8
Codec ID : S_TEXT/UTF8
Codec ID/Info : UTF-8 Plain Text
Duration : 30 s 200 ms
Bit rate : 42 b/s
Frame rate : 0.033 FPS
Count of elements : 1
Stream size : 160 Bytes (0%)
Title : TheMoviesBoss
Language : English
Default : Yes
Forced : Yes

Text #2
ID : 5
Format : UTF-8
Codec ID : S_TEXT/UTF8
Codec ID/Info : UTF-8 Plain Text
Duration : 1 h 45 min
Bit rate : 26 b/s
Frame rate : 0.125 FPS
Count of elements : 794
Stream size : 20.4 KiB (0%)
Title : themoviesboss[Full]
Language : English
Default : No
Forced : No



Screenshots:













Files:

  • TheMoviesBoss - Last.Flim.Show.(Hindi).(2021).1080p.NF.WEB-DL.Hindi.DDP5.1.H.264-themoviesboss.mkv (2.5 GB)

Comments

Code:

  • udp://tracker.tiny-vps.com:6969/announce
  • udp://fasttracker.foreverpirates.co:6969/announce
  • udp://tracker.opentrackr.org:1337/announce
  • udp://explodie.org:6969/announce
  • udp://open.stealth.si:80/announce
  • udp://tracker.cyberia.is:6969/announce
  • udp://ipv4.tracker.harry.lu:80/announce
  • udp://tracker.uw0.xyz:6969/announce
  • udp://tracker.dler.org:6969/announce
  • udp://9.rarbg.to:2710/announce
  • udp://tracker.bitsearch.to:1337/announce
  • udp://aarsen.me:6969/announce
  • udp://htz3.noho.st:6969/announce
  • udp://tracker.joybomb.tw:6969/announce
  • udp://vibe.sleepyinternetfun.xyz:1738/announce