The.Noel.Diary.(2022).1080p.10Bit.HEVC.NF.WEBRip.HIN-TAM-TEL-ENG....

  • Category Movies
  • Type Dubs/Dual Audio
  • Language Hindi
  • Total size 2.1 GB
  • Uploaded By tmb001
  • Downloads 279
  • Last checked 57 minutes ago
  • Date uploaded 1 week ago
  • Seeders 23
  • Leechers 2

The Noel Diary

ComedyDramaRomance

Cleaning out his childhood home at Christmas, a novelist meets a woman searching for her birth mother. Will an old diary unlock their pasts — and hearts?

Infohash : 590AE8257423E63E16BEB0873FCEE3E0300B892D




The.Noel.Diary.(2022).1080p.10Bit.HEVC.NF.WEBRip.HIN-TAM-TEL-ENG.DD5.1.H.265-themoviesboss



Media Info



Format : Matroska
Format version : Version 4
File size : 2.15 GiB
Duration : 1 h 40 min
Overall bit rate : 3 053 kb/s
Encoded date : UTC 2022-11-24 08:51:44
Writing library : Lavf58.76.100
ErrorDetectionType : Per level 1

Video
ID : 1
Format : HEVC
Format/Info : High Efficiency Video Coding
Format profile : Main [email protected]@High
Codec ID : V_MPEGH/ISO/HEVC
Duration : 1 h 40 min
Bit rate : 2 096 kb/s
Width : 1 920 pixels
Height : 960 pixels
Display aspect ratio : 2.000
Frame rate mode : Constant
Frame rate : 24.000 FPS
Color space : YUV
Chroma subsampling : 4:2:0 (Type 0)
Bit depth : 10 bits
Bits/(Pixel*Frame) : 0.047
Stream size : 1.48 GiB (69%)
Writing library : x265 3.5+1-f0c1022b6:[Windows][GCC 10.2.0][64 bit] 10bit
Default : Yes
Forced : No
Color range : Limited
Color primaries : BT.709
Transfer characteristics : BT.709
Matrix coefficients : BT.709

Audio #1
ID : 2
Format : AC-3
Format/Info : Audio Coding 3
Commercial name : Dolby Digital
Codec ID : A_AC3
Duration : 1 h 40 min
Bit rate mode : Constant
Bit rate : 224 kb/s
Channel(s) : 6 channels
Channel layout : L R C LFE Ls Rs
Sampling rate : 48.0 kHz
Frame rate : 31.250 FPS (1536 SPF)
Compression mode : Lossy
Delay relative to video : -5 ms
Stream size : 161 MiB (7%)
Title : themoviesboss
Language : Hindi
Service kind : Complete Main
Default : Yes
Forced : No

Audio #2
ID : 3
Format : AC-3
Format/Info : Audio Coding 3
Commercial name : Dolby Digital
Codec ID : A_AC3
Duration : 1 h 40 min
Bit rate mode : Constant
Bit rate : 224 kb/s
Channel(s) : 6 channels
Channel layout : L R C LFE Ls Rs
Sampling rate : 48.0 kHz
Frame rate : 31.250 FPS (1536 SPF)
Compression mode : Lossy
Delay relative to video : -5 ms
Stream size : 161 MiB (7%)
Title : themoviesboss
Language : Tamil
Service kind : Complete Main
Default : No
Forced : No

Audio #3
ID : 4
Format : AC-3
Format/Info : Audio Coding 3
Commercial name : Dolby Digital
Codec ID : A_AC3
Duration : 1 h 40 min
Bit rate mode : Constant
Bit rate : 224 kb/s
Channel(s) : 6 channels
Channel layout : L R C LFE Ls Rs
Sampling rate : 48.0 kHz
Frame rate : 31.250 FPS (1536 SPF)
Compression mode : Lossy
Delay relative to video : -5 ms
Stream size : 161 MiB (7%)
Title : themoviesboss
Language : Telugu
Service kind : Complete Main
Default : No
Forced : No

Audio #4
ID : 5
Format : AC-3
Format/Info : Audio Coding 3
Commercial name : Dolby Digital
Codec ID : A_AC3
Duration : 1 h 40 min
Bit rate mode : Constant
Bit rate : 224 kb/s
Channel(s) : 6 channels
Channel layout : L R C LFE Ls Rs
Sampling rate : 48.0 kHz
Frame rate : 31.250 FPS (1536 SPF)
Compression mode : Lossy
Delay relative to video : -5 ms
Stream size : 161 MiB (7%)
Title : themoviesboss
Language : English
Service kind : Complete Main
Default : No
Forced : No

Text #1
ID : 6
Format : ASS
Codec ID : S_TEXT/ASS
Codec ID/Info : Advanced Sub Station Alpha
Duration : 30 s 205 ms
Compression mode : Lossless
Title : TheMoviesBoss
Language : English
Default : No
Forced : No

Text #2
ID : 7
Format : ASS
Codec ID : S_TEXT/ASS
Codec ID/Info : Advanced Sub Station Alpha
Duration : 1 h 37 min
Compression mode : Lossless
Title : themoviesboss[Full]
Language : English
Default : No
Forced : No



Screenshots:













Files:

  • TheMoviesBoss - The.Noel.Diary.(2022).1080p.10Bit.HEVC.NF.WEBRip.Multi.DD5.1.H.265-themoviesboss.mkv (2.1 GB)

There are currently no comments. Feel free to leave one :)

Code:

  • udp://tracker.tiny-vps.com:6969/announce
  • udp://fasttracker.foreverpirates.co:6969/announce
  • udp://tracker.opentrackr.org:1337/announce
  • udp://explodie.org:6969/announce
  • udp://open.stealth.si:80/announce
  • udp://tracker.cyberia.is:6969/announce
  • udp://ipv4.tracker.harry.lu:80/announce
  • udp://tracker.uw0.xyz:6969/announce
  • udp://tracker.dler.org:6969/announce
  • udp://9.rarbg.to:2710/announce
  • udp://tracker.bitsearch.to:1337/announce
  • udp://aarsen.me:6969/announce
  • udp://htz3.noho.st:6969/announce
  • udp://tracker.joybomb.tw:6969/announce
  • udp://vibe.sleepyinternetfun.xyz:1738/announce